Get the Flash Player to see this player
 

342 MБ
47 мин : 39 сек
1280 x 720
28 окт 2013



Одобряю
Запомнить
Текущий кадр





Мегазаводы: Тягачи-Петербилт / Megafactories: Trucks - Peterbilt [HD]

Альбом Документальное (14 видео)

Описание:
Посмотрите, как создаются титаны дорог - тягачи "Петербилт-387", способные тянуть машины весом до 36 тонн. Каждый из них имеет более 20 тысяч деталей, и поэтому их сборка - очень сложная задача.

Название: Мегазаводы: Тягачи-Петербилт
Оригинальное название: Megafactories: Trucks - Peterbilt
Телекомпания: National Geographic Channel
Год выхода: 2006
Жанр: Документальный, научно-популярный
Продолжительность: 00:47:29
Перевод: Одноголосый закадровый, профессиональный

Общее
Полное имя : Peterbilt 387.mp4
Формат : MPEG-4
Профиль формата : Base Media / Version 2
Идентификатор кодека : mp42
Размер файла : 831 Мбайт
Продолжительность : 47 м.
Режим общего битрейта : Переменный
Общий поток : 2437 Кбит/сек
Дата кодирования : UTC 2013-09-07 22:38:39
Дата пометки : UTC 2013-09-07 22:38:39
gsst : 0
gstd : 2859211
gssd : B4A7DD188MH1378736944671146
gshh : r8---sn-5hn7su76.c.youtube.com

Видео
Идентификатор : 1
Формат : AVC
Формат/Информация : Advanced Video Codec
Профиль формата : High@L3.1
Параметр CABAC формата : Да
Параметр ReFrames формата : 1 кадр
Идентификатор кодека : avc1
Идентификатор кодека/Информация : Advanced Video Coding
Продолжительность : 47 м.
Битрейт : 2242 Кбит/сек
Максимальный битрейт : 7105 Кбит/сек
Ширина : 1280 пикселей
Высота : 720 пикселей
Соотношение сторон : 16:9
Режим частоты кадров : Постоянный
Частота кадров : 25,000 кадров/сек
Цветовое пространство : YUV
Субдискретизация насыщенности : 4:2:0
Битовая глубина : 8 бит
Тип развёртки : Прогрессивная
Бит/(Пиксели*Кадры) : 0.097
Размер потока : 764 Мбайт (92%)
Дата пометки : UTC 2013-09-07 22:40:46

Аудио
Идентификатор : 2
Формат : AAC
Формат/Информация : Advanced Audio Codec
Профиль формата : LC
Идентификатор кодека : 40
Продолжительность : 47 м.
Вид битрейта : Переменный
Битрейт : 192 Кбит/сек
Максимальный битрейт : 202 Кбит/сек
Каналы : 2 канала
Расположение каналов : Front: L R
Частота : 44,1 КГц
Метод сжатия : С потерями
Размер потока : 65,4 Мбайт (8%)
Заголовок : IsoMedia File Produced by Google, 5-11-2011
Дата кодирования : UTC 2013-09-07 22:40:01
Дата пометки : UTC 2013-09-07 22:40:46



  Комментарии       
Имя или Email


При указании email на него будут отправляться ответы
Как имя будет использована первая часть email до @
Сам email нигде не отображается!
Зарегистрируйтесь, чтобы писать под своим ником
Категории ВИДЕО »






Cодержимое этого сайта добавлено его посетителями.
Администрация не несет ответственности за действия посетителей.
При обнаружении незаконно размещенного материала свяжитесь с нами.

Про сайт io.ua   Новости io   Отзывы   Реклама   Contacts